<?xml version="1.0" standalone="no"?>
<!DOCTYPE svg PUBLIC "-//W3C//DTD SVG 1.1//EN" "http://www.w3.org/Graphics/SVG/1.1/DTD/svg11.dtd" >
<svg xmlns="http://www.w3.org/2000/svg">
<metadata>Generated by IcoMoon</metadata>
<defs>
<font id="icomoon" horiz-adv-x="1024">
<font-face units-per-em="1024" ascent="960" descent="-64" />
<missing-glyph horiz-adv-x="1024" />
<glyph unicode="&#x20;" d="" horiz-adv-x="512" />
<glyph unicode="&#xe600;" d="M544 896c-265.088 0-480-214.912-480-480s214.912-480 480-480 480 214.912 480 480-214.912 480-480 480zM774.272 473.152l-207.552-207.552c-6.272-6.272-14.528-9.408-22.72-9.344-8.256 0-16.448 3.072-22.72 9.344l-207.552 207.552c-12.48 12.48-12.48 32.768 0 45.248s32.768 12.48 45.248 0l185.024-185.024 185.024 185.024c12.48 12.48 32.768 12.48 45.248 0s12.48-32.768 0-45.248z" />
<glyph unicode="&#xe601;" d="M544 896c-265.088 0-480-214.912-480-480s214.912-480 480-480 480 214.912 480 480-214.912 480-480 480zM646.4 230.976c12.48-12.48 12.48-32.768 0-45.248s-32.768-12.48-45.248 0l-207.552 207.552c-6.272 6.272-9.344 14.464-9.344 22.72s3.072 16.448 9.344 22.72l207.552 207.552c12.48 12.48 32.768 12.48 45.248 0s12.48-32.768 0-45.248l-185.024-185.024 185.024-185.024z" />
<glyph unicode="&#xe602;" d="M544 896c-265.088 0-480-214.912-480-480s214.912-480 480-480 480 214.912 480 480-214.912 480-480 480zM694.4 393.28l-207.552-207.552c-12.48-12.48-32.768-12.48-45.248 0s-12.48 32.768 0 45.248l185.024 185.024-185.024 185.024c-12.48 12.48-12.48 32.768 0 45.248s32.768 12.48 45.248 0l207.552-207.552c6.272-6.272 9.408-14.528 9.344-22.72 0-8.256-3.072-16.448-9.344-22.72z" />
<glyph unicode="&#xe603;" d="M960 832h-896c-35.328 0-64-28.672-64-64v-128h1024v128c0 35.328-28.672 64-64 64zM64 0c0-35.328 28.672-64 64-64h768c35.328 0 64 28.672 64 64v576h-896v-576zM384 448h256c35.328 0 64-28.672 64-64s-28.672-64-64-64h-256c-35.328 0-64 28.672-64 64s28.672 64 64 64z" />
<glyph unicode="&#xe604;" d="M192-64h640c35.328 0 64 28.672 64 64v704c0 35.328-28.672 64-64 64h-128.32c-1.536 106.304-86.656 192-191.68 192s-190.144-85.696-191.68-192h-128.32c-35.328 0-64-28.672-64-64v-704c0-35.328 28.672-64 64-64zM608 576h-192c-17.664 0-32 14.336-32 32s14.336 32 32 32h192c17.664 0 32-14.336 32-32s-14.336-32-32-32zM512 896c69.568 0 126.144-57.152 127.68-128h-255.36c1.536 70.848 58.112 128 127.68 128z" />
<glyph unicode="&#xe605;" d="M161.344-64h605.12c35.328 0 64 28.672 64 64v672c0 17.664-14.336 32-32 32 0 0 0 0 0 0h-542.464c-1.6 0-4.736-0.256-7.744-0.448l-86.912 0.448c-53.696 0-97.344 41.024-97.344 94.656 0 53.696 42.304 97.344 96 97.344h736v-736c0-17.664 12.8-32 30.528-32s33.472 14.336 33.472 32v768c0 17.664-15.808 32-33.472 32h-765.184c-88.32 0-159.808-70.976-161.088-158.976l-0.256 0.32v-704c0-89.088 72.256-161.344 161.344-161.344z" />
<glyph unicode="&#xe606;" d="M960 704h-192v128c0 35.328-28.672 64-64 64h-384c-35.328 0-64-28.672-64-64v-128h-192c-35.328 0-64-28.672-64-64v-576c0-35.328 28.672-64 64-64h896c35.328 0 64 28.672 64 64v576c0 35.328-28.672 64-64 64zM320 832h384v-128h-384v128z" />
<glyph unicode="&#xe607;" d="M1014.336 502.848l-154.304 280.64c-0.384 0.704-1.216 0.96-1.664 1.6-7.744 11.968-22.336 18.048-36.544 13.312l-245.824-81.856v83.456c0 17.664-14.336 32-32 32s-32-14.336-32-32v-104.704l-267.2-88.896c-2.176-0.704-3.84-2.176-5.76-3.328 0 0 0 0-0.064 0-4.352-2.624-8-5.952-10.624-10.112-0.32-0.448-0.896-0.64-1.216-1.152l-158.912-280c-3.584-6.272-4.224-13.184-3.392-19.84-0.192-1.344-0.832-2.56-0.832-3.968 0-65.92 99.52-160 192-160s192 94.080 192 160c0 4.096-0.896 8-2.368 11.584 0 0.128-0.064 0.256-0.064 0.384-0.064 0.192-0.128 0.448-0.192 0.64-0.576 3.84-1.664 7.616-3.648 11.2l-139.712 246.080 209.984 69.888v-531.776c0-17.664 14.336-32 32-32s32 14.336 32 32v553.088l188.544 62.72-114.88-209.024c-5.952-5.76-9.664-13.824-9.664-22.784 0-65.92 99.52-160 192-160s192 94.080 192 160c0 8.96-3.712 17.024-9.664 22.848zM146.432 320l108.544 191.168 108.48-191.168h-217.024zM727.808 512l104.192 189.568 104.192-189.568h-208.384z" />
<glyph unicode="&#xe608;" d="M512 960c-282.752 0-512-229.248-512-512s229.248-512 512-512 512 229.248 512 512-229.248 512-512 512zM512 832c211.712 0 384-172.288 384-384 0-82.816-26.624-159.36-71.36-222.144l-534.784 534.784c62.784 44.736 139.328 71.36 222.144 71.36zM128 448c0 82.816 26.624 159.36 71.36 222.144l534.784-534.784c-62.848-44.736-139.328-71.36-222.144-71.36-211.712 0-384 172.288-384 384z" />
<glyph unicode="&#xe609;" d="M64-64h832c35.328 0 64 28.672 64 64v384c0 35.328-28.672 64-64 64h-192c-35.328 0-64-28.672-64-64v512c0 35.328-28.672 64-64 64h-192c-35.328 0-64-28.672-64-64v-256c0 35.328-28.672 64-64 64h-192c-35.328 0-64-28.672-64-64v-640c0-35.328 28.672-64 64-64zM64 0v128h64v-128h-64zM128 384v-64h-64v64h64zM64 448v64h64v-64h-64zM128 256v-64h-64v64h64zM192 320v64h64v-64h-64zM256 256v-64h-64v64h64zM192 448v64h64v-64h-64zM192 0v128h64v-128h-64zM256 576h-64v64h64v-64zM128 576h-64v64h64v-64zM512 0v128h64v-128h-64zM448 640v-64h-64v64h64zM384 704v64h64v-64h-64zM448 512v-64h-64v64h64zM448 384v-64h-64v64h64zM448 256v-64h-64v64h64zM512 320v64h64v-64h-64zM576 256v-64h-64v64h64zM512 448v64h64v-64h-64zM512 576v64h64v-64h-64zM512 704v64h64v-64h-64zM576 832h-64v64h64v-64zM448 832h-64v64h64v-64zM384 128h64v-128h-64v128zM768 192h-64v64h64v-64zM832 256h64v-64h-64v64zM832 128h64v-128h-64v128zM896 320h-64v64h64v-64zM768 320h-64v64h64v-64zM704 128h64v-128h-64v128z" />
<glyph unicode="&#xe60a;" d="M192-64h640c35.328 0 64 28.672 64 64v896c0 35.328-28.672 64-64 64h-640c-35.328 0-64-28.672-64-64v-896c0-35.328 28.672-64 64-64zM704 256c-35.328 0-64 28.672-64 64s28.672 64 64 64 64-28.672 64-64c0-35.328-28.672-64-64-64zM768 128c0-35.328-28.672-64-64-64s-64 28.672-64 64c0 35.328 28.672 64 64 64s64-28.672 64-64zM704 448c-35.328 0-64 28.672-64 64s28.672 64 64 64 64-28.672 64-64c0-35.328-28.672-64-64-64zM256 704v128h512v-128h-512zM512 256c-35.328 0-64 28.672-64 64s28.672 64 64 64 64-28.672 64-64c0-35.328-28.672-64-64-64zM576 128c0-35.328-28.672-64-64-64s-64 28.672-64 64c0 35.328 28.672 64 64 64s64-28.672 64-64zM512 448c-35.328 0-64 28.672-64 64s28.672 64 64 64 64-28.672 64-64c0-35.328-28.672-64-64-64zM320 576c35.328 0 64-28.672 64-64s-28.672-64-64-64-64 28.672-64 64c0 35.328 28.672 64 64 64zM320 384c35.328 0 64-28.672 64-64s-28.672-64-64-64-64 28.672-64 64c0 35.328 28.672 64 64 64zM320 192c35.328 0 64-28.672 64-64s-28.672-64-64-64-64 28.672-64 64c0 35.328 28.672 64 64 64z" />
<glyph unicode="&#xe60b;" d="M960 640h-128c0 0-36.992 0-64 64-13.76 32.576-28.672 64-64 64h-256c-35.328 0-50.688-31.232-64-64-25.984-64-64-64-64-64h-64c0 35.328-28.672 64-64 64h-64c-35.328 0-64-28.672-64-64-35.328 0-64-28.672-64-64v-128h355.52c44.352 76.224 125.952 128 220.48 128s176.128-51.776 220.48-128h227.52v128c0 35.328-28.672 64-64 64zM224 512h-128c-17.664 0-32 14.336-32 32s14.336 32 32 32h128c17.664 0 32-14.336 32-32s-14.336-32-32-32zM384 320c0-106.039 85.961-192 192-192s192 85.961 192 192c0 106.039-85.961 192-192 192s-192-85.961-192-192zM832 320c0-141.376-114.624-256-256-256s-256 114.624-256 256c0 22.208 3.712 43.456 9.024 64h-329.024v-320c0-35.328 28.672-64 64-64h896c35.328 0 64 28.672 64 64v320h-201.024c5.312-20.544 9.024-41.792 9.024-64z" />
<glyph unicode="&#xe60c;" d="M960 704h-768c-4.992 0-9.344-1.728-14.016-2.816l-24.832 106.112c-3.392 14.464-16.256 24.704-31.168 24.704h-91.84c-17.664 0-32-14.336-32-32s14.272-32 32-32h66.496l39.744-169.984 55.616-278.016c0-2.304 1.088-4.288 1.344-6.528l-32.576-146.56c-2.112-9.472 0.192-19.392 6.272-26.944 6.080-7.616 15.232-11.968 24.96-11.968h726.016c17.664 0 32 14.336 32 32s-14.336 32-32 32h-686.080l14.656 65.92c3.2-0.512 6.080-1.92 9.408-1.92h583.36c35.328 0 56.64 6.976 73.664 48l103.936 318.848c18.048 57.152-21.568 81.152-56.96 81.152zM192 0c0-35.346 28.654-64 64-64s64 28.654 64 64c0 35.346-28.654 64-64 64s-64-28.654-64-64zM768 0c0-35.346 28.654-64 64-64s64 28.654 64 64c0 35.346-28.654 64-64 64s-64-28.654-64-64z" horiz-adv-x="1037" />
<glyph unicode="&#xe60d;" d="M893.12 582.72c5.632-25.344 8.896-51.392 8.896-78.144 0-206.592-175.36-378.816-406.272-415.808 48.832-19.712 103.552-31.232 161.856-31.232 54.976 0 106.88 10.112 153.728 27.712 59.328-20.224 124.096-25.472 177.664-25.472-27.84 33.408-47.168 66.176-60.992 94.976 59.392 52.992 96 123.2 96 200.512 0 91.392-51.008 172.864-130.88 227.456zM806.016 504.576c0 180.8-180.416 327.424-403.008 327.424s-403.008-146.624-403.008-327.424c0-94.336 49.344-179.072 127.936-238.848-14.784-38.144-39.808-88-82.24-139.008 80.512 0 184.192 10.56 264 59.584 30.016-5.824 61.184-9.216 93.312-9.216 222.592 0.064 403.008 146.624 403.008 327.488z" />
<glyph unicode="&#xe60e;" d="M1020.224 780.032c-8.064 26.048-31.488 45.312-60.224 45.312h-64v-99.328c0-52.928-43.072-96-96-96s-96 43.072-96 96v99.328h-384.32v-99.328c0-52.928-43.072-96-96-96s-96 43.072-96 96v99.328h-63.68c-28.736 0-52.16-19.264-60.224-45.312h-3.776v-780.032c0-35.328 28.672-64 64-64h896c35.328 0 64 28.672 64 64v780.032h-3.776zM960 0h-896v512h896v-512zM223.68 694.016c17.664 0 32 14.336 32 32v201.984c0 17.664-14.336 32-32 32s-32-14.336-32-32v-201.984c0-17.664 14.336-32 32-32zM800 694.016c17.664 0 32 14.336 32 32v201.984c0 17.664-14.336 32-32 32s-32-14.336-32-32v-201.984c0-17.664 14.336-32 32-32z" />
<glyph unicode="&#xe60f;" d="M514.688 960c-282.752 0-512-229.248-512-512s229.248-512 512-512 512 229.248 512 512-229.248 512-512 512zM751.872 589.632l-245.248-374.848c-0.064-0.064-0.192-0.128-0.192-0.192-1.28-1.92-1.984-4.096-3.584-5.888-2.24-2.432-5.12-3.712-7.68-5.568-0.64-0.448-1.28-0.96-1.984-1.408-3.968-2.496-8.064-4.16-12.544-5.248-1.472-0.384-2.816-0.768-4.352-1.024-3.648-0.512-7.104-0.512-10.752-0.128-2.56 0.192-4.992 0.512-7.488 1.152-2.56 0.704-4.928 1.792-7.36 2.944-2.048 0.96-4.224 1.216-6.144 2.432-1.408 0.896-2.176 2.304-3.392 3.392-0.512 0.448-1.152 0.576-1.664 1.024l-142.784 132.032c-18.176 16.832-19.264 45.184-2.496 63.296s45.12 19.264 63.296 2.496l103.36-95.616 216 330.176c13.568 20.672 41.28 26.496 62.016 12.992 20.736-13.568 26.56-41.344 12.992-62.016z" />
<glyph unicode="&#xe610;" d="M203.288 756.712c-182.172-182.172-182.172-477.546 0-659.656s477.546-182.172 659.656 0c182.172 182.172 182.172 477.546 0 659.656-182.172 182.172-477.546 182.172-659.656 0zM780.916 397.74h-248.644c-0.437 0-0.812-0.25-1.249-0.25-17.243 0-31.237 13.994-31.237 31.237v312.616c0 17.243 13.994 31.237 31.237 31.237s31.237-13.994 31.237-31.237v-281.13h218.657c17.243 0 31.237-13.994 31.237-31.237s-13.994-31.237-31.237-31.237z" />
<glyph unicode="&#xe611;" d="M832 448c-2.24 0-4.352-0.576-6.528-0.64 4.288 20.864 6.528 42.496 6.528 64.64 0 176.704-143.296 320-320 320s-320-143.296-320-320c0-1.088 0.32-2.112 0.32-3.2-108.544-15.488-192.32-107.968-192.32-220.8 0-112.768 83.584-205.12 192-220.8v-3.2h320l-199.808 256h135.808v256c0 35.328 28.672 64 64 64s64-28.672 64-64v-256h135.808l-199.808-256h320c106.048 0 192 85.952 192 192s-85.952 192-192 192z" />
<glyph unicode="&#xe612;" d="M832 448c-2.24 0-4.352-0.576-6.528-0.64 4.288 20.864 6.528 42.496 6.528 64.64 0 176.704-143.296 320-320 320s-320-143.296-320-320c0-1.088 0.32-2.112 0.32-3.2-108.544-15.488-192.32-107.968-192.32-220.8 0-123.712 100.288-224 224-224h160.512c35.072 0 63.488 28.416 63.488 63.488v192.512h-135.808l199.808 256 199.808-256h-135.808v-192.512c0-35.072 28.416-63.488 63.488-63.488h192.512c106.048 0 192 85.952 192 192s-85.952 192-192 192z" />
<glyph unicode="&#xe613;" d="M832 448c-2.24 0-4.352-0.576-6.528-0.64 4.288 20.864 6.528 42.496 6.528 64.64 0 176.704-143.296 320-320 320s-320-143.296-320-320c0-1.088 0.32-2.112 0.32-3.2-108.544-15.488-192.32-107.968-192.32-220.8 0-112.768 83.584-205.12 192-220.8v-3.2h640c106.048 0 192 85.952 192 192s-85.952 192-192 192z" />
<glyph unicode="&#xe614;" d="M880.832 554.176c-8.064 28.032-19.008 54.72-32.896 79.744l63.616 133.824c-23.616 29.44-50.368 56.192-79.808 79.808l-133.824-63.616c-24.96 13.824-51.712 24.832-79.744 32.896l-49.792 139.904c-18.496 2.048-37.312 3.264-56.384 3.264s-37.888-1.216-56.384-3.264l-49.792-139.904c-27.968-8.064-54.72-19.072-79.68-32.896l-133.888 63.616c-29.44-23.616-56.192-50.368-79.808-79.808l63.616-133.824c-13.824-24.96-24.832-51.712-32.896-79.744l-139.904-49.792c-2.048-18.496-3.264-37.312-3.264-56.384s1.216-37.888 3.264-56.384l139.968-49.792c8.064-28.032 19.008-54.72 32.896-79.744l-63.616-133.824c23.616-29.44 50.368-56.256 79.808-79.808l133.824 63.616c24.96-13.824 51.712-24.832 79.744-32.896l49.792-139.968c18.432-1.984 37.248-3.2 56.32-3.2s37.888 1.216 56.384 3.264l49.792 139.968c28.032 8.064 54.72 19.008 79.744 32.896l133.824-63.616c29.44 23.616 56.256 50.368 79.808 79.808l-63.616 133.824c13.824 24.96 24.832 51.712 32.896 79.744l139.968 49.792c1.984 18.432 3.2 37.248 3.2 56.32s-1.216 37.888-3.264 56.384l-139.904 49.792zM512 192c-141.376 0-256 114.624-256 256s114.624 256 256 256 256-114.624 256-256c0-141.376-114.624-256-256-256zM384 448c0-70.692 57.308-128 128-128s128 57.308 128 128c0 70.692-57.308 128-128 128s-128-57.308-128-128z" />
<glyph unicode="&#xe615;" d="M162.496 176.576c-18.752-48.448-50.56-111.808-104.512-176.576 102.336 0 233.984 13.44 335.424 75.648 38.144-7.36 77.696-11.648 118.592-11.648 282.752 0 512 186.24 512 416s-229.248 416-512 416-512-186.24-512-416c0-119.808 62.72-227.52 162.496-303.424z" />
<glyph unicode="&#xe616;" d="M832 896h-192c0 35.328-28.672 64-64 64h-128c-35.328 0-64-28.672-64-64h-192c-35.328 0-64-28.672-64-64v-832c0-35.328 28.672-64 64-64h640c35.328 0 64 28.672 64 64v832c0 35.328-28.672 64-64 64zM832 64h-640v768h128c0-35.328 28.672-64 64-64h256c35.328 0 64 28.672 64 64h128v-768zM256 608c0-17.664 14.336-32 32-32h448c17.664 0 32 14.336 32 32s-14.336 32-32 32h-448c-17.664 0-32-14.336-32-32zM736 448h-448c-17.664 0-32-14.336-32-32s14.336-32 32-32h448c17.664 0 32 14.336 32 32s-14.336 32-32 32zM736 256h-448c-17.664 0-32-14.336-32-32s14.336-32 32-32h448c17.664 0 32 14.336 32 32s-14.336 32-32 32z" />
<glyph unicode="&#xe617;" d="M512 960c-282.752 0-512-229.248-512-512s229.248-512 512-512 512 229.248 512 512-229.248 512-512 512zM763.136 655.040l-123.968-198.656c0.192-2.816 0.832-5.504 0.832-8.384 0-70.72-57.28-128-128-128-2.88 0-5.568 0.64-8.384 0.832l-198.656-123.968c-5.184-3.264-11.072-4.864-16.96-4.864-8.256 0-16.448 3.2-22.656 9.344-10.56 10.56-12.416 26.944-4.48 39.552l123.968 198.656c-0.192 2.88-0.832 5.568-0.832 8.448 0 70.72 57.28 128 128 128 2.88 0 5.568-0.64 8.384-0.832l198.656 123.968c12.416 7.872 28.992 6.016 39.552-4.544 10.624-10.496 12.48-26.88 4.544-39.552zM448 448c0-35.346 28.654-64 64-64s64 28.654 64 64c0 35.346-28.654 64-64 64s-64-28.654-64-64z" />
<glyph unicode="&#xe618;" d="M694.272 576l-121.984 341.504c-9.088 25.472-33.216 42.496-60.288 42.496s-51.2-17.024-60.288-42.496l-121.984-341.504h364.544zM854.272 128l-91.456 256h-501.632l-91.456-256zM64 64c-35.328 0-64-28.672-64-64s28.672-64 64-64h896c35.328 0 64 28.672 64 64s-28.672 64-64 64h-896z" />
<glyph unicode="&#xe619;" d="M64 960c-35.328 0-64-28.672-64-64v-896c0-35.328 28.672-64 64-64h64v1024h-64zM832 960h-640v-1024h640c35.328 0 64 28.672 64 64v896c0 35.328-28.672 64-64 64zM540.48 713.344c53.504 0 96.832-43.392 96.832-96.832 0-53.504-43.392-96.896-96.832-96.896-53.504 0-96.896 43.392-96.896 96.896s43.392 96.832 96.896 96.832zM384 268.352c0 117.376 70.976 212.48 158.464 212.48s158.464-95.168 158.464-212.48-316.928-117.312-316.928 0zM960 896h64v-192h-64zM960 640h64v-192h-64zM960 384h64v-192h-64z" />
<glyph unicode="&#xe61a;" d="M544 896c-265.088 0-480-214.912-480-480s214.912-480 480-480 480 214.912 480 480-214.912 480-480 480zM598.848 448c93.248 0 169.152-71.744 169.152-160s-75.904-160-169.152-160h-22.848v-32c0-17.664-14.336-32-32-32s-32 14.336-32 32v32h-22.848c-93.248 0-169.152 71.744-169.152 160 0 17.664 14.336 32 32 32s32-14.336 32-32c0-52.928 47.168-96 105.152-96h22.848v192h-22.848c-93.248 0-169.152 71.744-169.152 160s75.904 160 169.152 160h22.848v32c0 17.664 14.336 32 32 32s32-14.336 32-32v-32h22.848c93.248 0 169.152-71.744 169.152-160 0-17.664-14.336-32-32-32s-32 14.336-32 32c0 52.928-47.168 96-105.152 96h-22.848v-192h22.848zM384 544c0-52.928 47.168-96 105.152-96h22.848v192h-22.848c-57.984 0-105.152-43.072-105.152-96zM598.848 192c57.984 0 105.152 43.072 105.152 96s-47.168 96-105.152 96h-22.848v-192h22.848z" />
<glyph unicode="&#xe61b;" d="M128 960c-35.328 0-64-28.672-64-64v-896c0-35.328 28.672-64 64-64h832c35.328 0 64 28.672 64 64v896c0 35.328-28.672 64-64 64h-832zM896 611.584v-547.584h-192v547.584h192zM640 768v-704h-192v704h192zM384 376.896v-312.896h-192v312.896h192z" />
<glyph unicode="&#xe61c;" d="M156.8 255.872c0 0 222.4 0 289.984 0v-174.784c-4.736-78.72 17.92-145.152 66.304-145.088 84.224 0.128 81.856 68.032 81.856 68.032 14.976 240.96 237.056 315.84 237.056 315.84v512l-29.504 3.968c-242.112 0-96.832 124.032-494.656 124.032-302.080 0-307.84-265.856-307.84-448s83.008-256 156.8-256zM960 895.872c-35.328 0-64-28.672-64-64v-510.016c0-35.328 28.672-64 64-64s64 28.672 64 64v510.016c0 35.328-28.672 64-64 64z" />
<glyph unicode="&#xe61d;" d="M128-64h770.688c35.328 0 64 28.672 64 64v896c0 35.328-28.672 64-64 64h-770.688c-35.328 0-64-28.672-64-64v-896c0-35.328 28.672-64 64-64zM480 768h258.688c17.664 0 32-14.336 32-32s-14.336-32-32-32h-258.688c-17.664 0-32 14.336-32 32s14.336 32 32 32zM288 576h450.688c17.664 0 32-14.336 32-32s-14.336-32-32-32h-450.688c-17.664 0-32 14.336-32 32s14.336 32 32 32zM288 384h450.688c17.664 0 32-14.336 32-32s-14.336-32-32-32h-450.688c-17.664 0-32 14.336-32 32s14.336 32 32 32zM288 192h450.688c17.664 0 32-14.336 32-32s-14.336-32-32-32h-450.688c-17.664 0-32 14.336-32 32s14.336 32 32 32z" />
<glyph unicode="&#xe61e;" d="M128 64h64v-64c0-35.328 28.672-64 64-64h640c35.328 0 64 28.672 64 64v768c0 35.328-28.672 64-64 64h-64v64c0 35.328-28.672 64-64 64h-640c-35.328 0-64-28.672-64-64v-768c0-35.328 28.672-64 64-64zM896 768v-768h-640v64h512c35.328 0 64 28.672 64 64v640h64zM672 832c17.664 0 32-14.336 32-32s-14.336-32-32-32h-258.688c-17.664 0-32 14.336-32 32s14.336 32 32 32h258.688zM221.312 640h450.688c17.664 0 32-14.336 32-32s-14.336-32-32-32h-450.688c-17.664 0-32 14.336-32 32s14.336 32 32 32zM221.312 448h450.688c17.664 0 32-14.336 32-32s-14.336-32-32-32h-450.688c-17.664 0-32 14.336-32 32s14.336 32 32 32zM221.312 256h450.688c17.664 0 32-14.336 32-32s-14.336-32-32-32h-450.688c-17.664 0-32 14.336-32 32s14.336 32 32 32z" />
<glyph unicode="&#xe61f;" d="M512 192l320 320h-192v384h-256l1.152-384h-193.152zM128 64v-128h768v256h-128v-128h-512v128h-128z" />
<glyph unicode="&#xe620;" d="M896 832c-17.984 40-50.624 64-86.016 64h-601.984c-35.328 0-64-24-80-64l-128-512v-289.024c0-17.664 14.336-32 32-32h960c17.664 0 32 14.336 32 32v285.056l-0.832 2.944-127.168 513.024zM188.48 810.688c2.944 6.592 10.432 21.312 19.52 21.312h601.984c8.768 0 18.88-9.024 25.984-22.784l112.704-458.048c0-0.128-0.192 0-0.192-0.128 0-17.664-14.336-32-32-32-0.064 0-0.064-0.064-0.128-0.064h-244.352c-17.664 0-32-14.336-32-32v-62.976c0-17.664-14.336-32-32-32-0.64 0-1.28-0.832-1.92-1.024h-188.992c-0.448 0.192-0.448 1.024-1.088 1.024-17.664 0-32 14.336-32 32v62.976c0 17.664-14.336 32-32 32h-244.352c-0.064 0-0.064 0.064-0.128 0.064-17.664 0-32.512 14.336-32.512 32 0 0.448-0.512 0.128-0.64 0.448l114.112 459.2z" />
<glyph unicode="&#xe621;" d="M128-64h768c70.72 0 128 57.28 128 128v64c0 3.008-0.704 5.824-0.896 8.704 0.192 3.264 0.896 6.976 0.896 9.984l-64 685.312c-3.968 62.656-57.28 128-128 128h-640c-70.72 0-124.032-65.344-128-128l-64-685.312c0-3.008 0.704-6.72 0.896-9.92-0.192-2.944-0.896-5.76-0.896-8.768v-64c0-70.72 57.28-128 128-128zM64 64v64c0 35.264 28.736 64 64 64h768c35.264 0 64-28.736 64-64v-64c0-35.264-28.736-64-64-64h-768c-35.264 0-64 28.736-64 64zM832 96c0-17.673 14.327-32 32-32s32 14.327 32 32c0 17.673-14.327 32-32 32s-32-14.327-32-32zM710.656 97.344c0-17.673 14.327-32 32-32s32 14.327 32 32c0 17.673-14.327 32-32 32s-32-14.327-32-32zM160 64h448c17.664 0 32 14.336 32 32s-14.336 32-32 32h-448c-17.664 0-32-14.336-32-32s14.336-32 32-32z" />
<glyph unicode="&#xe622;" d="M956.652 960h-829.098c-35.205 0-63.777-28.572-63.777-63.777s28.572-63.777 63.777-63.777v-510.214c0-35.205 28.572-63.777 63.777-63.777h318.884v-99.556l-180.871-163.843c-13.010-11.799-14.031-31.952-2.168-45.026 11.926-13.010 32.080-14.031 45.026-2.168l138.013 125.002v-101.405c0-17.602 14.286-31.888 31.888-31.888s31.888 14.286 31.888 31.888v101.405l138.013-125.002c6.123-5.549 13.776-8.291 21.429-8.291 8.674 0 17.284 3.571 23.597 10.459 11.862 13.074 10.842 33.228-2.168 45.026l-180.871 163.843v99.556h318.884c35.205 0 63.777 28.572 63.777 63.777v510.214c35.205 0 63.777 28.572 63.777 63.777s-28.572 63.777-63.777 63.777zM819.34 713.822l-223.219-215.247c-12.245-11.862-31.633-11.926-44.134-0.128l-98.535 93.688-142.541-148.536c-6.25-6.441-14.605-9.758-22.96-9.758-7.972 0-15.88 2.934-22.131 8.929-12.692 12.118-13.074 32.271-0.893 45.090l164.48 171.432c12.181 12.436 32.335 12.947 44.963 0.957l99.492-94.517 201.216 194.073c12.628 12.054 32.845 11.99 45.090-0.893 12.245-12.692 11.862-32.845-0.829-45.090z" horiz-adv-x="1020" />
<glyph unicode="&#xe623;" d="M512-64c282.752 0 512 229.248 512 512s-229.248 512-512 512-512-229.248-512-512 229.248-512 512-512zM576 384c0-35.328-28.672-64-64-64s-64 28.672-64 64v320c0 35.328 28.672 64 64 64s64-28.672 64-64v-320zM512 257.024c35.328 0 64-28.672 64-64s-28.672-64-64-64-64 28.672-64 64c0 35.328 28.672 64 64 64z" />
<glyph unicode="&#xe624;" d="M960 896h-896c-35.328 0-64-28.672-64-64v-576c0-35.328 28.672-64 64-64h319.936c-0.128-46.272-1.984-106.368-19.52-128h-12.928c-17.408 0-31.488-14.336-31.488-32s14.080-32 31.488-32h320.96c17.472 0 31.552 14.336 31.552 32s-14.080 32-31.488 32h-12.928c-17.6 21.632-19.392 81.728-19.52 128h319.936c35.328 0 64 28.672 64 64v576c0 35.328-28.672 64-64 64zM448 192l-0.064-0.128c0 0.064 0 0.064 0.064 0.128v0zM576.064 191.872l-0.064 0.128h0.064c0-0.064 0-0.064 0-0.128zM960 320h-896v512h896v-512z" />
<glyph unicode="&#xe625;" d="M768 960h-704c-35.328 0-64-28.672-64-64v-896c0-35.328 28.672-64 64-64h896c35.328 0 64 28.672 64 64v768l-192 192h-64zM704 640v256h64v-256c0-35.328-28.672-64-64-64h-384c-35.328 0-64 28.672-64 64v256h256v-256h192zM192 384c0 35.328 28.672 64 64 64h512c35.328 0 64-28.672 64-64v-384h-640v384z" />
<glyph unicode="&#xe626;" d="M960 320v128c0 35.328-28.672 64-64 64h-320v128h192c35.328 0 64 28.672 64 64v64c0 35.328-28.672 64-64 64h-448c-35.328 0-64-28.672-64-64v-64c0-35.328 28.672-64 64-64h192v-128h-320c-35.328 0-64-28.672-64-64v-128c-35.328 0-64-28.672-64-64v-128c0-35.328 28.672-64 64-64h64c35.328 0 64 28.672 64 64v128c0 35.328-28.672 64-64 64v128h320v-128c-35.328 0-64-28.672-64-64v-128c0-35.328 28.672-64 64-64h64c35.328 0 64 28.672 64 64v128c0 35.328-28.672 64-64 64v128h320v-128c-35.328 0-64-28.672-64-64v-128c0-35.328 28.672-64 64-64h64c35.328 0 64 28.672 64 64v128c0 35.328-28.672 64-64 64z" />
<glyph unicode="&#xe627;" d="M960 832h-320c-35.328 0-64-28.672-64-64 0 0-8.32-58.688-64-64h-448c-35.328 0-64-27.648-64-62.976v-577.024c0-35.328 28.672-64 64-64h896c35.328 0 64 28.672 64 64v704c0 35.328-28.672 64-64 64zM512.192 0.384l-199.808 256h135.808v256c0 35.328 28.672 64 64 64s64-28.672 64-64v-256h135.808l-199.808-256z" />
<glyph unicode="&#xe628;" d="M960 832h-320c-35.328 0-64-28.672-64-64 0 0-8.32-58.688-64-64h-448c-35.328 0-64-27.648-64-62.976v-577.024c0-35.328 28.672-64 64-64h384.192v320h-135.808l199.808 256 199.808-256h-135.808v-320h383.808c35.328 0 64 28.672 64 64v704c0 35.328-28.672 64-64 64z" />
<glyph unicode="&#xe629;" d="M960 768h-256c-35.328 0-64-28.672-64-64 0 0-8.32-58.688-64-64h-448c-35.328 0-64-28.672-64-64v-576c0-35.328 28.672-64 64-64h832c35.328 0 64 28.672 64 64v704c0 35.328-28.672 64-64 64zM736 256h-160v-160c0-17.664-14.336-32-32-32s-32 14.336-32 32v160h-160c-17.664 0-32 14.336-32 32s14.336 32 32 32h160v160c0 17.664 14.336 32 32 32s32-14.336 32-32v-160h160c17.664 0 32-14.336 32-32s-14.336-32-32-32z" />
<glyph unicode="&#xe62a;" d="M960 832h-320c-35.328 0-64-28.672-64-64 0 0-8.32-58.688-64-64h-448c-35.328 0-64-27.648-64-62.976v-65.024h1024v192c0 35.328-28.672 64-64 64zM0 0c0-35.328 28.672-64 64-64h896c35.328 0 64 28.672 64 64v512h-1024v-512z" />
<glyph unicode="&#xe62b;" d="M960 704h-381.312v-192h445.312v128c0 35.328-28.672 64-64 64zM64 704c-35.328 0-64-28.672-64-64v-128h448v192h-384zM64 448v-448c0-35.328 28.672-64 64-64h320v512h-384zM896-64c35.328 0 64 28.672 64 64v448h-381.312v-512h317.312zM511.936 768.512h0.192c-0.064-0.128-0.128-0.384-0.128-0.512h66.688c56.64 0 136.832 0 189.312 0 88.384 0 128 43.008 128 96s-39.616 96-128 96c-82.752 0-147.904-37.248-192-80.448-19.328 11.456-41.664 18.432-65.856 18.432-23.168 0-44.608-6.528-63.424-17.152-44.032 42.688-108.8 79.168-190.72 79.168-88.384 0-128-43.008-128-96s39.616-96 128-96c53.312 0 135.232 0 192 0h64c0 0.128-0.064 0.384-0.064 0.512zM832 864c0-26.432-34.816-32-64-32h-145.344c-0.512 0.896-0.96 1.856-1.472 2.688 32.512 31.616 81.792 61.312 146.816 61.312 29.184 0 64-5.568 64-32zM192 864c0 26.432 34.816 32 64 32 63.616 0 111.872-28.48 144.384-59.008-1.024-1.6-1.792-3.328-2.752-4.992h-141.632c-29.184 0-64 5.568-64 32z" />
<glyph unicode="&#xe62c;" d="M960 960h-896c-35.328 0-64-28.672-64-64v-896c0-35.328 28.672-64 64-64h896c35.328 0 64 28.672 64 64v896c0 35.328-28.672 64-64 64zM192 384v-128h-128v128h128zM64 512v128h128v-128h-128zM256 320h512v-320h-512v320zM768 384h-512v512h512v-512zM832 384h128v-128h-128v128zM832 512v128h128v-128h-128zM832 768v128h128v-128h-128zM192 768h-128v128h128v-128zM64 128h128v-128h-128v128zM832 128h128v-128h-128v128z" />
<glyph unicode="&#xe62d;" d="M963.776 267.584c-174.272-174.208-457.856-174.336-632.128 0-84.352 84.288-130.752 196.544-130.752 316.096s46.464 231.808 130.688 316.032c12.48 12.48 12.48 32.768 0 45.248s-32.768 12.48-45.248 0c-96.384-96.32-149.44-224.64-149.44-361.28s53.12-265.024 149.44-361.344c81.344-81.408 183.616-128.96 289.664-143.872v-78.464h-96c-17.664 0-32-14.336-32-32s14.336-32 32-32h256c17.664 0 32 14.336 32 32s-14.336 32-32 32h-96v73.216c2.56-0.064 5.12-0.384 7.68-0.384 130.816 0 261.696 49.792 361.344 149.44 12.48 12.48 12.48 32.768 0 45.248s-32.768 12.544-45.248 0.064zM271.36 583.68c0-207.836 168.484-376.32 376.32-376.32s376.32 168.484 376.32 376.32c0 207.836-168.484 376.32-376.32 376.32s-376.32-168.484-376.32-376.32z" />
<glyph unicode="&#xe62e;" d="M192 512h192c35.328 0 64 28.672 64 64v192c0 35.328-28.672 64-64 64h-192c-35.328 0-64-28.672-64-64v-192c0-35.328 28.672-64 64-64zM640 512h192c35.328 0 64 28.672 64 64v192c0 35.328-28.672 64-64 64h-192c-35.328 0-64-28.672-64-64v-192c0-35.328 28.672-64 64-64zM128 128c0-35.328 28.672-64 64-64h192c35.328 0 64 28.672 64 64v192c0 35.328-28.672 64-64 64h-192c-35.328 0-64-28.672-64-64v-192zM576 128c0-35.328 28.672-64 64-64h192c35.328 0 64 28.672 64 64v192c0 35.328-28.672 64-64 64h-192c-35.328 0-64-28.672-64-64v-192z" />
<glyph unicode="&#xe62f;" d="M128 640h128c35.328 0 64 28.672 64 64v128c0 35.328-28.672 64-64 64h-128c-35.328 0-64-28.672-64-64v-128c0-35.328 28.672-64 64-64zM448 640h128c35.328 0 64 28.672 64 64v128c0 35.328-28.672 64-64 64h-128c-35.328 0-64-28.672-64-64v-128c0-35.328 28.672-64 64-64zM768 640h128c35.328 0 64 28.672 64 64v128c0 35.328-28.672 64-64 64h-128c-35.328 0-64-28.672-64-64v-128c0-35.328 28.672-64 64-64zM64 384c0-35.328 28.672-64 64-64h128c35.328 0 64 28.672 64 64v128c0 35.328-28.672 64-64 64h-128c-35.328 0-64-28.672-64-64v-128zM384 384c0-35.328 28.672-64 64-64h128c35.328 0 64 28.672 64 64v128c0 35.328-28.672 64-64 64h-128c-35.328 0-64-28.672-64-64v-128zM704 384c0-35.328 28.672-64 64-64h128c35.328 0 64 28.672 64 64v128c0 35.328-28.672 64-64 64h-128c-35.328 0-64-28.672-64-64v-128zM64 64c0-35.328 28.672-64 64-64h128c35.328 0 64 28.672 64 64v128c0 35.328-28.672 64-64 64h-128c-35.328 0-64-28.672-64-64v-128zM384 64c0-35.328 28.672-64 64-64h128c35.328 0 64 28.672 64 64v128c0 35.328-28.672 64-64 64h-128c-35.328 0-64-28.672-64-64v-128zM704 64c0-35.328 28.672-64 64-64h128c35.328 0 64 28.672 64 64v128c0 35.328-28.672 64-64 64h-128c-35.328 0-64-28.672-64-64v-128z" />
<glyph unicode="&#xe630;" d="M431.443 805.913c0 82.467-71.62 154.087-154.087 154.087s-154.087-71.62-154.087-154.087c0-82.467 71.62-154.087 154.087-154.087s154.087 71.62 154.087 154.087zM539.304 220.383c0 246.539-127.954 369.809-269.652 369.809s-269.652-123.27-269.652-369.809c0-168.879 539.304-168.879 539.304 0zM724.208 531.947c82.467 0 154.087 71.62 154.087 154.087s-71.62 154.087-154.087 154.087-154.087-71.62-154.087-154.087 71.62-154.087 154.087-154.087zM716.504 470.312c-42.59 0-83.392-12.512-120.373-34.824 22.373-60.156 35.625-131.467 35.625-215.105 0-83.022-55.348-147.677-150.327-184.658 117.784-99.725 504.727-78.461 504.727 64.778 0 246.539-127.954 369.809-269.652 369.809z" horiz-adv-x="986" />
<glyph unicode="&#xe631;" d="M1023.488 517.312c-2.688 157.056-130.112 297.024-287.488 297.024-91.008 0-171.2-47.616-224-117.504-52.8 69.888-132.992 117.504-224 117.504-157.376 0-284.8-139.968-287.488-297.024h-0.512c0-0.96 0.192-1.856 0.192-2.816 0-0.704-0.192-1.408-0.192-2.176 0-4.416 1.088-7.744 1.28-11.968 14.080-400.256 506.688-564.352 506.688-564.352s499.84 163.904 514.624 563.712c0.256 4.48 1.408 8 1.408 12.608 0 0.768-0.192 1.472-0.192 2.176 0 1.024 0.192 1.856 0.192 2.816h-0.512z" />
<glyph unicode="&#xe632;" d="M52.992 391.808l459.008 397.824 459.008-397.824c6.080-5.248 13.568-7.808 20.992-7.808 8.96 0 17.856 3.776 24.192 11.008 11.584 13.376 10.112 33.536-3.2 45.184l-480 416c-12.032 10.432-29.888 10.432-41.92 0l-171.072-148.224v60.032c0 35.328-28.672 64-64 64s-64-28.672-64-64v-170.944l-180.992-156.864c-13.312-11.584-14.784-31.808-3.2-45.184 11.648-13.312 31.808-14.784 45.184-3.2zM384 256h256v-320h192c35.328 0 64 28.672 64 64v313.664c0 19.2-8.576 37.312-23.424 49.472l-320 262.336c-11.776 9.664-26.176 14.528-40.576 14.528s-28.8-4.864-40.576-14.528l-320-262.336c-14.848-12.096-23.424-30.272-23.424-49.472v-313.664c0-35.328 28.672-64 64-64h192v320z" horiz-adv-x="1032" />
<glyph unicode="&#xe633;" d="M960 768h-896c-35.328 0-64-28.672-64-64v-576c0-35.328 28.672-64 64-64h896c35.328 0 64 28.672 64 64v576c0 35.328-28.672 64-64 64zM869.312 384h-389.312c-17.664 0-32 14.336-32 32s14.336 32 32 32h389.312c17.664 0 32-14.336 32-32s-14.336-32-32-32zM901.312 288c0-17.664-14.336-32-32-32h-389.312c-17.664 0-32 14.336-32 32s14.336 32 32 32h389.312c17.664 0 32-14.336 32-32zM869.312 512h-389.312c-17.664 0-32 14.336-32 32s14.336 32 32 32h389.312c17.664 0 32-14.336 32-32s-14.336-32-32-32zM257.536 454.464c69.824 0 126.464-75.904 126.464-169.6s-252.992-93.696-252.992 0 56.64 169.6 126.528 169.6zM178.624 562.688c0 42.688 34.56 77.312 77.248 77.312s77.312-34.624 77.312-77.312c0-42.688-34.624-77.312-77.312-77.312s-77.248 34.624-77.248 77.312z" />
<glyph unicode="&#xe634;" d="M512 960c-282.752 0-512-229.248-512-512s229.248-512 512-512 512 229.248 512 512-229.248 512-512 512zM448 512c0 35.328 28.672 64 64 64s64-28.672 64-64v-320c0-35.328-28.672-64-64-64s-64 28.672-64 64v320zM512 638.976c-35.328 0-64 28.672-64 64s28.672 64 64 64 64-28.672 64-64c0-35.328-28.672-64-64-64z" />
<glyph unicode="&#xe635;" d="M992 960h-128c-7.744 0-15.232-2.816-21.12-7.936l-441.728-387.264c-22.848 4.8-58.176 11.2-81.152 11.2-176.448 0-320-143.552-320-320s143.552-320 320-320 320 143.552 320 320c0 52.416-9.984 87.552-21.312 116.736l108.928 36.992c13.248 4.48 22.016 17.088 21.696 31.040l-2.688 121.472 122.24 8.512c16.384 1.152 29.248 14.528 29.76 30.912l4.544 145.856 95.744 21.248c14.656 3.2 25.088 16.256 25.088 31.232v128c0 17.664-14.336 32-32 32zM224 256c38.4 0 71.552-22.592 86.912-55.168 5.824-12.416 9.088-26.24 9.088-40.832 0-52.992-43.008-96-96-96s-96 43.008-96 96 43.008 96 96 96z" />
<glyph unicode="&#xe636;" d="M512 960c-131.008 0-262.080-49.984-362.048-149.952-199.936-199.936-199.936-524.16 0-724.096 99.968-99.968 231.040-149.952 362.048-149.952s262.080 49.984 362.048 149.952c199.936 199.936 199.936 524.16 0 724.096-99.968 99.968-231.040 149.952-362.048 149.952zM331.008 267.008c-48.384 48.32-75.008 112.64-75.008 180.992s26.624 132.672 75.008 180.992c48.32 48.384 112.64 75.008 180.992 75.008s132.672-26.624 180.992-75.008c48.384-48.32 75.008-112.64 75.008-180.992s-26.624-132.672-75.008-180.992c-48.32-48.384-112.64-75.008-180.992-75.008s-132.672 26.624-180.992 75.008zM709.952 849.6l-98.752-98.752c-32.256 10.56-65.6 17.152-99.2 17.152-30.592 0-60.864-5.824-90.496-14.528l-99.84 99.84c58.88 27.584 123.392 42.688 190.336 42.688 69.888 0 137.088-16.32 197.952-46.4zM106.752 638.272l99.84-99.84c-18.304-62.080-17.536-128 2.56-189.696l-98.752-98.752c-30.080 60.928-46.4 128.128-46.4 198.016 0 66.944 15.104 131.456 42.752 190.272zM195.2 131.264v0c0-0.064 0-0.064 0 0v0zM329.408 39.104l100.864 100.864c26.816-7.104 54.144-11.968 81.728-11.968 30.592 0 60.864 5.824 90.496 14.592l99.84-99.84c-58.88-27.648-123.392-42.752-190.336-42.752-64.064 0-125.824 13.76-182.592 39.104zM917.12 257.856l-99.648 99.648c16.576 56.256 17.536 115.584 2.56 172.224l100.672 100.672c52.672-118.464 51.456-254.912-3.584-372.544z" horiz-adv-x="1124" />
<glyph unicode="&#xe637;" d="M832 619.136v276.864h31.552c17.92 0 32.448 14.336 32.448 32s-14.528 32-32.448 32h-639.104c-17.92 0-32.448-14.336-32.448-32s14.528-32 32.448-32h31.552v-276.864c0-18.24 7.808-35.648 21.44-47.808l138.368-123.328-138.368-123.328c-13.632-12.16-21.44-29.568-21.44-47.808v-276.864h-31.552c-17.92 0-32.448-14.336-32.448-32s14.528-32 32.448-32h639.168c17.856 0 32.384 14.336 32.384 32s-14.528 32-32.448 32h-31.552v276.864c0 18.24-7.808 35.648-21.44 47.808l-138.368 123.328 138.368 123.328c13.632 12.16 21.44 29.568 21.44 47.808zM768 619.136l-192-171.136 192-171.136v-276.864h-448v276.864l192 171.136-192 171.136v276.864h448v-276.864zM704 711.808v56.192h-320v-56.192l160-142.592zM384 183.936v-119.936h320v119.936l-80.832 72.064h-158.336z" />
<glyph unicode="&#xe638;" d="M867.896 444.040c4.535 12.136 8.303 24.655 11.561 37.238 0.575 2.172 1.277 4.216 1.788 6.387 2.874 11.816 4.918 23.888 6.643 36.024 0.383 2.81 1.086 5.621 1.405 8.431 1.725 14.754 2.683 29.637 2.683 44.647 0 211.289-171.944 383.234-383.234 383.234s-383.234-171.944-383.234-383.234c0-15.010 0.958-29.892 2.747-44.583 0.319-2.874 0.958-5.621 1.341-8.431 1.725-12.136 3.768-24.208 6.643-36.024 0.511-2.172 1.214-4.279 1.788-6.387 3.257-12.583 7.026-25.102 11.561-37.238 0.447-1.15 0.958-2.299 1.341-3.449 5.046-13.094 10.667-25.932 17.118-38.387 0.255-0.511 0.511-0.958 0.766-1.405 6.707-12.902 14.116-25.421 22.291-37.557 0.255-0.383 0.511-0.703 0.703-1.086 7.984-11.816 16.671-23.122 25.932-34.044 0.766-0.894 1.469-1.725 2.236-2.619 8.431-9.772 17.565-19.034 27.018-27.976 2.108-1.98 4.088-3.96 6.259-5.876 2.81-2.491 5.301-5.301 8.24-7.729 1.725-1.469 3.832-2.427 5.749-3.641 6.323-5.238 12.327-10.731 19.034-15.585 2.683-1.916 4.343-3.768 6.643-5.685 44.072-36.599 22.547-65.533 71.601-65.533 6.834 0 224.064 0 288.447 0 48.99 0 27.529 28.934 71.665 65.533 2.299 1.916 3.96 3.705 6.643 5.685 6.707 4.854 12.711 10.347 19.034 15.585 1.852 1.277 3.96 2.172 5.749 3.641 2.874 2.427 5.429 5.238 8.24 7.729 2.108 1.916 4.152 3.96 6.259 5.876 9.453 8.942 18.523 18.204 27.018 27.976 0.766 0.894 1.469 1.725 2.236 2.619 9.261 10.922 17.948 22.228 25.932 34.044 0.255 0.383 0.511 0.703 0.703 1.086 8.112 12.072 15.521 24.591 22.228 37.493 0.255 0.447 0.511 0.958 0.766 1.405 6.451 12.455 12.072 25.293 17.118 38.387 0.383 1.214 0.894 2.299 1.341 3.449zM734.531 573.764c-17.629 0-31.936 14.307-31.936 31.936 0 97.341-87.824 162.683-159.681 162.683-17.629 0-31.936 14.307-31.936 31.936s14.307 31.936 31.936 31.936c109.796 0 223.553-80.862 223.553-226.555 0-17.629-14.307-31.936-31.936-31.936zM504.846 1.916h-140.327l115.162-58.89c9.134-4.663 19.098-7.026 29.062-7.026 9.836 0 19.737 2.299 28.806 6.834l116.822 59.082h-149.525zM702.595 97.725c0 17.629-14.307 31.936-31.936 31.936h-319.361c-17.629 0-31.936-14.307-31.936-31.936s14.307-31.936 31.936-31.936h319.361c17.629 0 31.936 14.307 31.936 31.936z" horiz-adv-x="1022" />
<glyph unicode="&#xe639;" d="M867.2 640c0 0-222.4 0-289.984 0v174.784c4.736 78.72-17.92 145.152-66.304 145.088-84.224-0.128-81.856-68.032-81.856-68.032-14.976-240.96-237.056-315.84-237.056-315.84v-512l29.504-3.968c242.112 0 96.832-124.032 494.656-124.032 302.080 0 307.84 265.856 307.84 448s-83.008 256-156.8 256zM64 0c35.328 0 64 28.672 64 64v510.016c0 35.328-28.672 64-64 64s-64-28.672-64-64v-510.016c0-35.328 28.672-64 64-64z" />
<glyph unicode="&#xe63a;" d="M551.296 585.984c0-49.167 39.857-89.024 89.024-89.024s89.024 39.857 89.024 89.024c0 49.167-39.857 89.024-89.024 89.024s-89.024-39.857-89.024-89.024zM832 64h64v384l-256-192-320 256-192-192v-256h64zM960 832h-896c-35.328 0-64-28.672-64-64v-768c0-35.328 28.672-64 64-64h896c35.328 0 64 28.672 64 64v768c0 35.328-28.672 64-64 64zM960 0h-896v768h896v-768z" />
<glyph unicode="&#xe63b;" d="M832 576h-580.928v59.072c0 108.608 88.32 196.928 196.928 196.928 71.552 0 133.824-38.656 168.256-95.936 0.32 0.384 0.896 0.576 1.28 0.96 11.584-16.512 29.824-28.032 51.52-28.032 35.328 0 64 28.672 64 64 0 8.64-1.792 16.896-4.928 24.448-0.256 0.448-0.448 0.96-0.704 1.408-2.816 6.4-6.848 12.032-11.52 17.088-58.24 86.464-155.776 144.064-267.904 144.064-179.456 0-324.928-145.472-324.928-324.928v-59.072h-59.072c-35.328 0-64-28.672-64-64v-512c0-35.328 28.672-64 64-64h768c35.328 0 64 28.672 64 64v512c0 35.328-28.672 64-64 64zM448 128c-70.72 0-128 57.28-128 128s57.28 128 128 128 128-57.28 128-128-57.28-128-128-128z" />
<glyph unicode="&#xe63c;" d="M512 960c-179.456 0-324.928-145.472-324.928-324.928v-59.072h-59.072c-35.328 0-64-28.672-64-64v-512c0-35.328 28.672-64 64-64h768c35.328 0 64 28.672 64 64v512c0 35.328-28.672 64-64 64h-59.072v59.072c0 179.456-145.472 324.928-324.928 324.928zM315.072 635.072c0 108.608 88.32 196.928 196.928 196.928s196.928-88.32 196.928-196.928v-59.072h-393.856v59.072zM512 128c-70.72 0-128 57.28-128 128s57.28 128 128 128 128-57.28 128-128c0-70.72-57.28-128-128-128z" />
<glyph unicode="&#xe63d;" d="M960 704h-896c-35.328 0-64-28.672-64-64v-107.456l512-204.8 512 204.8v107.456c0 35.328-28.672 64-64 64zM0 428.032v-428.032c0-35.328 28.672-64 64-64h896c35.328 0 64 28.672 64 64v428.032l-512-204.8-512 204.8z" />
<glyph unicode="&#xe63e;" d="M322.688 774.272l-258.688 121.728v-768l258.688-121.728zM386.688 7.168l254.656 114.752v768l-254.656-114.752zM705.344 120.576l254.656-120.576v768l-254.656 120.576z" />
<glyph unicode="&#xe63f;" d="M448 134.144v-134.144h-96c-17.664 0-32-14.336-32-32s14.336-32 32-32h320c17.664 0 32 14.336 32 32s-14.336 32-32 32h-96v134.528c133.312 26.304 256 134.208 256 313.472v96c0 17.664-14.336 32-32 32s-32-14.336-32-32v-96c0-168.064-128.832-256-256-256-123.328 0-256 80.128-256 256v96c0 17.664-14.336 32-32 32s-32-14.336-32-32v-96c0-181.76 120.512-288.384 256-313.856zM512 320c70.72 0 128 57.28 128 128v384c0 70.72-57.28 128-128 128s-128-57.28-128-128v-384c0-70.72 57.28-128 128-128z" />
<glyph unicode="&#xe640;" d="M544 896c-265.088 0-480-214.912-480-480s214.912-480 480-480 480 214.912 480 480-214.912 480-480 480zM800 384h-512c-17.664 0-32 14.336-32 32s14.336 32 32 32h512c17.664 0 32-14.336 32-32s-14.336-32-32-32z" />
<glyph unicode="&#xe641;" d="M768-64c35.328 0 64 28.672 64 64v896c0 35.328-28.672 64-64 64h-448c-35.328 0-64-28.672-64-64v-896c0-35.328 28.672-64 64-64h448zM512 35.968c0 19.904 16.128 35.968 35.968 35.968s35.968-16.128 35.968-35.968-16.064-35.968-35.968-35.968-35.968 16.128-35.968 35.968zM672 896c17.664 0 32-14.336 32-32s-14.336-32-32-32h-64c-17.664 0-32 14.336-32 32s14.336 32 32 32h64zM512 864c0-17.664-14.336-32-32-32s-32 14.336-32 32c0 17.664 14.336 32 32 32s32-14.336 32-32zM320 768h448v-640h-448v640z" />
<glyph unicode="&#xe642;" d="M828.48 639.872c1.792 26.752 2.88 48.448 3.456 61.44 0.704 17.408-5.696 34.368-17.728 46.976s-28.8 19.712-46.208 19.712h-704c-17.408 0-34.112-7.104-46.208-19.712s-18.432-29.568-17.728-46.976c3.52-84.544 27.328-511.872 149.248-620.992 11.712-10.496 26.944-16.32 42.688-16.32h448c15.744 0 30.976 5.824 42.688 16.32 38.208 34.24 66.816 99.712 88.128 176.128 31.68 0.128 53.568 0.192 56.128 0.192 108.864 0 197.12 79.36 197.12 191.68-0.064 152.512-131.904 190.976-195.584 191.552zM826.88 352.64l-20.288-0.064c-3.84 0-8.704 0-13.44-0.064 12.736 65.6 21.44 132.864 27.328 191.488h6.4c16.896 0 101.12-4.608 101.12-95.68 0-65.728-52.416-95.68-101.12-95.68z" horiz-adv-x="1025" />
<glyph unicode="&#xe643;" d="M24.936 8.308c46.747-60.684 143.304-64.621 215.674-8.874 29.436 22.686 49.809 51.809 61.121 82.37 6.5 12.874 10.749 31.123 10.749 51.997v467.034l562.466 106.306v-246.61c0-86.995-66.558-106.993-90.12-111.431-2.062-0.25-4.062-0.75-6.125-1.125-1.062-0.125-2.625-0.312-2.625-0.312l0.375-0.125c-27.873-5.062-55.934-16.749-81.12-36.123-72.371-55.747-93.182-150.116-46.435-210.8s143.304-64.684 215.674-8.937c36.623 28.248 59.934 66.371 68.058 104.994 2.812 9.374 4.812 19.686 4.812 31.373v606.588c0 3.812-0.75 7.062-1.062 10.687 0.125 1.875 1.062 4 1.062 5.875v62.496c0 34.498-27.998 53.997-62.496 43.435l-562.466-106.306c-34.498-10.499-62.496-47.060-62.496-81.558v-62.496c0-0.875 0.437-1.5 0.5-2.312-0.062-1.875-0.5-3.5-0.5-5.375v-330.855c0-87.12-66.746-107.056-90.245-111.431-1.187-0.187-2.375-0.562-3.625-0.75-3.062-0.5-5.062-0.687-5.062-0.687l0.687-0.312c-27.623-5.187-55.434-16.749-80.37-35.935-72.371-55.747-93.119-150.116-46.435-210.8z" horiz-adv-x="1000" />
<glyph unicode="&#xe644;" d="M512 960c-282.752 0-512-229.248-512-512s229.248-512 512-512 512 229.248 512 512-229.248 512-512 512zM448 320c0-35.328-28.672-64-64-64s-64 28.672-64 64v256c0 35.328 28.672 64 64 64s64-28.672 64-64v-256zM704 320c0-35.328-28.672-64-64-64s-64 28.672-64 64v256c0 35.328 28.672 64 64 64s64-28.672 64-64v-256z" />
<glyph unicode="&#xe645;" d="M960 960h-896c-35.328 0-64-28.672-64-64v-896c0-35.328 28.672-64 64-64h896c35.328 0 64 28.672 64 64v896c0 35.328-28.672 64-64 64zM178.368 666.496c-31.808 31.808-31.808 83.328 0 115.136s83.328 31.808 115.136 0l84.736-84.736-115.136-115.136-84.736 84.736zM659.84 185.024l-328.96 328.96 115.136 115.136 328.96-328.96 57.024-172.16-172.16 57.024z" />
<glyph unicode="&#xe646;" d="M128 832v-576l128-320 128 320-0.32 0.128c0.192 0.192 0.128 0.512 0.32 0.704v575.168c0 70.72-57.28 128-128 128s-128-57.28-128-128zM192 832c0 35.264 28.736 64 64 64s64-28.736 64-64v-64h-128v64zM256 108.352l-46.72 116.736 46.72 23.36 46.72-23.36-0.96-2.432-12.8-32-32.96-82.304zM805.888 769.344l-60.48 154.688-0.576-0.128c-3.008 20.288-19.712 36.096-40.832 36.096-20.864 0-37.952-16.064-41.344-36.16l-0.64 0.128-59.904-154.624-26.112-65.344v-640c0-70.72 57.28-128 128-128s128 57.28 128 128c35.328 0 64 28.672 64 64v192c0 35.328-28.672 64-64 64v320l-26.112 65.344zM746.432 745.536l16.64-41.536h-118.144l16.64 41.536 8.96 22.464 33.472 83.648 33.472-83.648 8.96-22.464z" />
<glyph unicode="&#xe647;" d="M320 609.984c0-18.769 15.215-33.984 33.984-33.984s33.984 15.215 33.984 33.984c0 18.769-15.215 33.984-33.984 33.984s-33.984-15.215-33.984-33.984zM512 960c-282.752 0-512-229.248-512-512s229.248-512 512-512 512 229.248 512 512-229.248 512-512 512zM256 609.984c0 54.144 43.904 97.984 97.984 97.984s97.984-43.904 97.984-97.984-43.84-97.984-97.984-97.984-97.984 43.904-97.984 97.984zM342.656 233.344c-6.272-6.208-14.464-9.344-22.656-9.344s-16.384 3.136-22.656 9.344c-12.48 12.48-12.48 32.768 0 45.248l384 384c12.48 12.48 32.768 12.48 45.248 0s12.48-32.768 0-45.248l-383.936-384zM670.016 192c-54.144 0-97.984 43.904-97.984 97.984s43.904 97.984 97.984 97.984 97.984-43.84 97.984-97.984-43.904-97.984-97.984-97.984zM636.032 289.984c0 0 0 0 0 0 0-18.769 15.215-33.984 33.984-33.984s33.984 15.215 33.984 33.984c0 0 0 0 0 0s0 0 0 0c0 18.769-15.215 33.984-33.984 33.984s-33.984-15.215-33.984-33.984c0 0 0 0 0 0z" />
<glyph unicode="&#xe648;" d="M422.912 701.952c-12.224 140.608-158.912 209.6-165.12 212.416-5.824 2.752-12.352 3.584-18.624 2.496-169.344-28.096-194.816-126.656-195.84-130.752-1.408-5.76-1.152-11.712 0.64-17.28 201.984-626.688 621.76-742.848 759.744-781.056 10.624-2.944 19.392-5.312 26.048-7.488 3.2-1.088 6.528-1.536 9.856-1.536 4.544 0 9.088 0.96 13.248 2.88 4.224 1.92 103.936 48.896 128.32 202.112 1.088 6.656 0 13.568-3.072 19.584-2.176 4.224-54.336 103.488-198.976 138.56-10.112 2.624-20.48-0.064-28.288-6.72-45.632-38.976-108.672-80.512-135.872-84.8-182.336 89.152-284.16 260.224-288 292.672-2.24 18.24 39.552 82.304 87.616 134.4 6.080 6.592 9.152 15.552 8.32 24.512z" />
<glyph unicode="&#xe649;" d="M488.704-46.656c5.376-5.952 10.56-9.792 15.552-12.48 0.064-0.064 0.192-0.064 0.256-0.128 3.456-1.792 6.848-3.136 10.048-3.136s6.592 1.344 10.048 3.136c0.064 0.064 0.192 0.064 0.256 0.128 4.992 2.688 10.176 6.528 15.552 12.48 0 0 297.472 323.52 327.36 603.84 1.792 14.464 3.008 29.12 3.008 44.032 0 198.144-160.64 358.784-358.784 358.784s-358.784-160.64-358.784-358.784c0-15.168 1.216-29.952 3.072-44.608 30.656-280.192 332.416-603.264 332.416-603.264zM512 832c127.232 0 230.784-103.552 230.784-230.784s-103.552-230.784-230.784-230.784-230.784 103.552-230.784 230.784c0 127.232 103.552 230.784 230.784 230.784z" />
<glyph unicode="&#xe64a;" d="M544 896c-265.088 0-480-214.912-480-480s214.912-480 480-480 480 214.912 480 480-214.912 480-480 480zM800 384h-224v-224c0-17.664-14.336-32-32-32s-32 14.336-32 32v224h-224c-17.664 0-32 14.336-32 32s14.336 32 32 32h224v224c0 17.664 14.336 32 32 32s32-14.336 32-32v-224h224c17.664 0 32-14.336 32-32s-14.336-32-32-32z" />
<glyph unicode="&#xe64b;" d="M960 640h-64v256c0 35.328-28.672 64-64 64h-640c-35.328 0-64-28.672-64-64v-256h-64c-35.328 0-64-28.672-64-64v-320c0-35.328 28.672-64 64-64h64v-192c0-35.328 28.672-64 64-64h640c35.328 0 64 28.672 64 64v192h64c35.328 0 64 28.672 64 64v320c0 35.328-28.672 64-64 64zM192 320h640v-320h-640v320zM704 480c0 17.664 14.336 32 32 32s32-14.336 32-32c0-17.664-14.336-32-32-32s-32 14.336-32 32zM160 448c-17.664 0-32 14.336-32 32s14.336 32 32 32 32-14.336 32-32c0-17.664-14.336-32-32-32zM864 448c-17.664 0-32 14.336-32 32s14.336 32 32 32 32-14.336 32-32c0-17.664-14.336-32-32-32zM192 896h640v-256h-640v256zM768 224c0 17.664-14.336 32-32 32h-448c-17.664 0-32-14.336-32-32s14.336-32 32-32h448c17.664 0 32 14.336 32 32zM736 128h-448c-17.664 0-32-14.336-32-32s14.336-32 32-32h448c17.664 0 32 14.336 32 32s-14.336 32-32 32z" />
<glyph unicode="&#xe64c;" d="M667.259 778.020c0 97.42-84.56 181.98-181.98 181.98s-181.98-84.56-181.98-181.98c0-97.42 84.56-181.98 181.98-181.98s181.98 84.56 181.98 181.98zM485.279 535.381c-159.414 0-303.3-171.971-303.3-385.676s606.599-213.705 606.599 0-143.885 385.676-303.3 385.676z" horiz-adv-x="971" />
<glyph unicode="&#xe64d;" d="M249.543 351.302c0-47.85 120.405-73.241 249.605-76.797 0-0.25-0.062-0.499-0.062-0.749v-187.157c0-34.437 13.974-124.772 31.193-124.772s31.193 90.335 31.193 124.772v187.157c0 0.25-0.062 0.499-0.062 0.749 129.201 3.556 249.605 28.947 249.605 76.797 0 50.782-45.978 87.839-124.772 107.803v323.096c78.793 26.701 124.772 69.685 124.772 100.254 0 103.373-561.472 103.373-561.472 0 0-33.626 45.978-75.674 124.772-101.377v-321.973c-78.793-20.026-124.772-57.021-124.772-107.803z" horiz-adv-x="998" />
<glyph unicode="&#xe64e;" d="M379.344 159.786c-39.608 0-75.128 17.185-100.107 44.144-44.144 47.594-76.342 17.632-85.988-29.195-48.871-238.735 21.721-236.883 21.721-236.883l679.089-1.853c70.592 0 127.768 57.176 127.768 127.768v447.189c0 70.592 8.177 170.507-56.218 141.567-48.744-21.848-112.82-34.945-213.246-14.246-46.827 9.647-76.789 41.844-29.195 85.988 26.959 24.979 44.144 60.434 44.144 100.107-0.064 74.936-60.754 135.626-135.626 135.626-74.936 0-135.626-60.69-135.626-135.626 0-42.419 22.104-77.428 50.021-105.217 16.802-16.738 61.137-60.498-52.321-80.494-124.766-21.912-244.421 48.616-268.505 22.998-15.971-16.929-59.923-80.814-31.687-230.622 21.465-114.033 63.884-66.823 80.558-50.021 27.79 27.917 62.798 50.021 105.217 50.021 74.872 0 135.626-60.69 135.626-135.626 0-74.872-60.69-135.626-135.626-135.626z" horiz-adv-x="1022" />
<glyph unicode="&#xe64f;" d="M512-64c282.752 0 512 229.248 512 512s-229.248 512-512 512-512-229.248-512-512 229.248-512 512-512zM512 832c127.424 0 256-72.96 256-236.032 0-94.912-47.040-169.024-139.776-220.032-26.88-14.784-52.224-44.032-52.224-55.936 0-35.328-28.672-64-64-64s-64 28.672-64 64c0 81.216 74.496 143.872 118.528 168.064 64.704 35.712 73.472 74.624 73.472 107.904 0 94.016-80.192 108.032-128 108.032-61.632 0-128-40.448-128-129.344 0-35.328-28.672-64-64-64s-64 28.672-64 64c0 167.168 131.904 257.344 256 257.344zM512 61.184c-36.416 0-65.92 29.504-65.92 65.92s29.504 65.92 65.92 65.92 65.92-29.504 65.92-65.92-29.504-65.92-65.92-65.92z" />
<glyph unicode="&#xe650;" d="M128 768v-768c0-25.856 15.616-49.216 39.488-59.136 7.936-3.264 16.256-4.864 24.512-4.864 16.64 0 33.024 6.528 45.248 18.752l274.752 274.752 274.752-274.752c12.224-12.224 28.608-18.752 45.248-18.752 8.256 0 16.576 1.6 24.448 4.864 23.936 9.92 39.552 33.28 39.552 59.136v768h-768zM896 832v64c0 35.328-28.672 64-64 64h-640c-35.328 0-64-28.672-64-64v-64h768z" />
<glyph unicode="&#xe651;" d="M640 512h-256v-320c0-64-128-156.672-128-192v-32c0-17.664 14.336-32 32-32h448c17.664 0 32 14.336 32 32v32c0 35.328-128 128-128 192v320zM741.312 894.912v1.088h-64v-1.088c-1.792 0.32-3.392 1.088-5.312 1.088-17.664 0-32-14.336-32-32v-32h-64v32c0 15.808-11.648 28.288-26.688 30.912v1.088h-64v-1.088c-1.792 0.32-3.392 1.088-5.312 1.088-17.664 0-32-14.336-32-32v-32h-64v32c0 15.808-11.648 28.288-26.688 30.912v1.088h-64v-1.088c-1.792 0.32-3.392 1.088-5.312 1.088-17.664 0-32-14.336-32-32v-160c0-16.96 6.72-33.28 18.752-45.248l64-64c12.032-12.032 28.288-18.752 45.248-18.752h256c16.96 0 33.28 6.72 45.248 18.752l64 64c12.032 11.968 18.752 28.288 18.752 45.248v160c0 15.808-11.648 28.288-26.688 30.912z" />
<glyph unicode="&#xe652;" d="M64 0h576c35.328 0 64 28.672 64 64v86.4c13.632 6.528 26.368 14.336 38.336 23.36l196.416-196.416c6.272-6.272 14.464-9.344 22.656-9.344s16.384 3.136 22.656 9.344c12.48 12.48 12.48 32.768 0 45.248l-196.544 196.544c27.584 37.248 44.48 82.944 44.48 132.864 0 89.216-52.544 165.568-128 201.6v342.4c0 35.328-28.672 64-64 64h-576c-35.328 0-64-28.672-64-64v-832c0-35.328 28.672-64 64-64zM608 192c-88.192 0-160 71.808-160 160s71.808 160 160 160 160-71.808 160-160-71.808-160-160-160zM544 704h-384c-17.664 0-32 14.336-32 32s14.336 32 32 32h384c17.664 0 32-14.336 32-32s-14.336-32-32-32zM160 576h384c6.208 0 11.648-2.24 16.512-5.248-41.856-9.088-79.36-29.824-108.928-58.752h-291.584c-17.664 0-32 14.336-32 32s14.336 32 32 32zM160 384h227.2c-1.472-10.56-3.2-21.056-3.2-32s1.728-21.44 3.2-32h-227.2c-17.664 0-32 14.336-32 32s14.336 32 32 32z" />
<glyph unicode="&#xe653;" d="M494.4-61.504c5.76-1.664 11.712-2.496 17.6-2.496s11.84 0.832 17.6 2.496c396.096 113.152 454.4 513.536 429.952 709.504-4.032 31.936-31.296 56-63.552 56-9.152 0.704-64 10.176-64 128 0 16.96-6.72 33.28-18.752 45.248-13.824 13.824-93.248 82.752-301.248 82.752s-287.424-68.928-301.248-82.752c-12.032-11.968-18.752-28.288-18.752-45.248 0-117.824-54.848-127.296-65.856-128.064-32.256 0-57.664-24-61.696-56-24.448-195.904 33.92-596.288 429.952-709.44zM128 640c0 0 128 0 128 192 0 0 64 64 256 64v-448h376.896c-25.216-159.424-109.824-371.712-376.896-448v448h-376.896c-17.024 108.032-7.104 192-7.104 192z" />
<glyph unicode="&#xe654;" d="M664.192 583.424l-156.8 317.696-156.8-317.696-350.592-50.944 253.696-247.296-59.904-349.184 313.6 164.864 313.6-164.864-59.904 349.184 253.696 247.296z" />
<glyph unicode="&#xe655;" d="M512 960c-282.752 0-512-229.248-512-512s229.248-512 512-512 512 229.248 512 512-229.248 512-512 512zM704 320c0-35.328-28.672-64-64-64h-256c-35.328 0-64 28.672-64 64v256c0 35.328 28.672 64 64 64h256c35.328 0 64-28.672 64-64v-256z" />
<glyph unicode="&#xe656;" d="M832-64c35.328 0 64 28.672 64 64v896c0 35.328-28.672 64-64 64h-640c-35.328 0-64-28.672-64-64v-896c0-35.328 28.672-64 64-64h640zM512-35.968c-19.904 0-35.968 16.128-35.968 35.968s16.064 35.968 35.968 35.968 35.968-16.064 35.968-35.968-16.064-35.968-35.968-35.968zM256 832h512v-768h-512v768z" />
<glyph unicode="&#xe657;" d="M929.856 895.68c-0.576 0-1.152 0-1.728 0-0.512 0-0.96 0.064-1.472 0h-402.368c-9.792-0.448-32.064-15.744-34.944-18.624l-470.656-470.656c-24.96-24.96-24.96-65.408 0-90.368l361.344-361.344c12.544-12.48 28.864-18.688 45.184-18.688s32.704 6.208 45.184 18.688l470.656 470.656c2.88 2.88 18.944 22.656 18.944 34.944v403.648c0.896 17.856-12.608 31.744-30.144 31.744zM864 768c-17.664 0-32 14.336-32 32s14.336 32 32 32 32-14.336 32-32c0-17.664-14.336-32-32-32z" />
<glyph unicode="&#xe658;" d="M929.449 960c-0.576 0-1.151 0-1.727 0-0.512 0-0.96 0.064-1.471 0h-338.22c-9.788-0.512-32.050-15.801-34.929-18.68l-407.182-407.118c-24.949-24.949-24.949-65.379 0-90.328l50.794-50.794-50.794-50.794c-24.949-24.949-24.949-65.379 0-90.328l297.214-297.214c12.475-12.475 28.787-18.68 45.164-18.68s32.69 6.205 45.164 18.68l407.118 407.182c2.943 2.879 19 22.582 19 34.865v531.416c0.896 17.848-12.602 31.794-30.131 31.794zM863.622 896.284c17.656 0 31.986-14.33 31.986-31.986s-14.33-31.986-31.986-31.986-31.986 14.33-31.986 31.986 14.33 31.986 31.986 31.986zM895.416 407.090l-406.99-407.182-297.214 297.086 50.794 50.794 201.192-201.192c12.475-12.475 28.787-18.68 45.164-18.68s32.69 6.205 45.164 18.68l362.082 362.146v-101.14c-0.192-0.32-0.32-0.512-0.192-0.512-0.064 0-0.064 0 0 0z" />
<glyph unicode="&#xe659;" d="M832 192c7.552 0 15.040-1.664 22.208-4.352 8.384-3.136 16.32-7.68 23.040-14.4l127.552-127.552c11.968 25.024 19.2 52.736 19.2 82.304 0 101.632-79.168 183.936-179.072 190.72-4.352 0.256-8.512 1.28-12.928 1.28-23.424 0-45.632-4.8-66.368-12.48l-394.112 394.112c7.68 20.736 12.48 42.944 12.48 66.368 0 4.416-1.024 8.576-1.28 12.928-6.784 99.904-89.088 179.072-190.72 179.072-29.568 0-57.28-7.232-82.304-19.2l127.552-127.552c6.72-6.72 11.328-14.656 14.4-23.040 8.384-22.72 3.84-49.152-14.4-67.456-12.48-12.48-28.864-18.752-45.248-18.752-7.552 0-15.040 1.664-22.208 4.352-8.384 3.136-16.32 7.68-23.040 14.4l-127.552 127.552c-11.968-25.024-19.2-52.736-19.2-82.304 0-101.632 79.168-183.936 179.072-190.72 4.352-0.256 8.512-1.28 12.928-1.28 23.424 0 45.632 4.8 66.368 12.48l394.112-394.112c-7.68-20.736-12.48-42.944-12.48-66.368 0-4.416 1.024-8.576 1.28-12.928 6.784-99.904 89.088-179.072 190.72-179.072 29.568 0 57.28 7.232 82.304 19.2l-127.552 127.552c-6.72 6.72-11.328 14.656-14.4 23.040-8.384 22.72-3.84 49.152 14.4 67.456 12.48 12.48 28.864 18.752 45.248 18.752z" />
<glyph unicode="&#xe65a;" d="M960 640h-256v64c0 35.328-28.672 64-64 64h-256c-35.328 0-64-28.672-64-64v-64h-256c-35.328 0-64-28.672-64-64v-128h1024v128c0 35.328-28.672 64-64 64zM384 704h256v-64h-256v64zM384 384h256v-64h-256zM704 320c0-35.328-28.672-64-64-64h-256c-35.328 0-64 28.672-64 64v64h-320v-384c0-35.328 28.672-64 64-64h896c35.328 0 64 28.672 64 64v384h-320v-64z" />
<glyph unicode="&#xe65b;" d="M27.111 99.687c-37.469-37.469-37.469-98.148 0-135.617 18.734-18.734 43.287-28.070 67.84-28.070s49.106 9.335 67.84 28.070l314.905 314.905-135.681 135.617-314.905-314.905zM814.149 683.331l137.024 70.91 71.869 138.814-66.945 66.945-138.814-71.869-70.91-137.024-167.011-167.011 67.776-67.776zM844.137 319.321c-4.348 0.256-8.504 1.279-12.916 1.279-23.402 0-45.589-4.796-66.306-12.468l-393.743 393.743c7.673 20.717 12.468 42.904 12.468 66.306 0 4.412-1.023 8.568-1.279 12.916-6.778 99.81-89.005 178.904-190.541 178.904-29.54 0-57.226-7.225-82.227-19.182l127.433-127.433c6.714-6.714 11.317-14.642 14.387-23.018 8.376-22.699 3.836-49.106-14.387-67.393-12.468-12.468-28.837-18.734-45.206-18.734-7.545 0-15.026 1.662-22.187 4.348-8.376 3.133-16.305 7.673-23.018 14.387l-127.433 127.433c-11.957-25.001-19.182-52.687-19.182-82.227 0-101.537 79.094-183.764 178.904-190.541 4.348-0.256 8.504-1.279 12.916-1.279 23.402 0 45.589 4.796 66.306 12.468l393.743-393.743c-7.673-20.717-12.468-42.904-12.468-66.306 0-4.412 1.023-8.568 1.279-12.916 6.778-99.81 89.005-178.904 190.541-178.904 29.54 0 57.226 7.225 82.227 19.182l-127.433 127.433c-6.714 6.714-11.317 14.642-14.387 23.018-8.376 22.699-3.836 49.106 14.387 67.393 12.468 12.468 28.837 18.734 45.206 18.734 7.545 0 15.026-1.662 22.187-4.348 8.376-3.133 16.305-7.673 23.018-14.387l127.433-127.433c11.957 25.001 19.182 52.687 19.182 82.227 0 101.537-79.094 183.764-178.904 190.541z" horiz-adv-x="1033" />
<glyph unicode="&#xe65c;" d="M832 896h-128c0 35.328-28.672 64-64 64h-192c-35.328 0-64-28.672-64-64h-128c-35.328 0-64-28.672-64-64h704c0 35.328-28.672 64-64 64zM192 0c0-35.328 28.672-64 64-64h576c35.328 0 64 28.672 64 64v768h-704v-768zM704 608c0 17.664 14.336 32 32 32s32-14.336 32-32v-512c0-17.664-14.336-32-32-32s-32 14.336-32 32v512zM512 608c0 17.664 14.336 32 32 32s32-14.336 32-32v-512c0-17.664-14.336-32-32-32s-32 14.336-32 32v512zM320 608c0 17.664 14.336 32 32 32s32-14.336 32-32v-512c0-17.664-14.336-32-32-32s-32 14.336-32 32v512z" />
<glyph unicode="&#xe65d;" d="M192 576h192v-384h256l-1.344 384h193.344l-320 320zM768 64h-512v128h-128v-256h768v256h-128z" />
<glyph unicode="&#xe65e;" d="M63.892 185.179h146.633c11.564-11.501 277.995-235.762 277.995-235.762 16.037-9.712 29.646-12.523 41.274-11.437 23.64 2.236 40.252 22.043 45.3 42.936 0.256 2.045 0.256 933.848-0.064 935.893-4.984 20.957-21.659 40.763-45.236 42.999-11.628 1.086-25.237-1.725-41.274-11.437 0 0-266.43-232.44-277.995-243.94h-146.633c-35.268 0-63.892-28.624-63.892-63.892v-391.467c0-35.332 28.624-63.892 63.892-63.892zM1010.838 614.279c-15.206 15.206-39.933 15.206-55.139 0l-110.278-110.278-110.278 110.278c-15.206 15.206-39.933 15.206-55.139 0s-15.206-39.933 0-55.139l110.278-110.278-110.278-110.278c-15.206-15.206-15.206-39.933 0-55.139s39.933-15.206 55.139 0l110.278 110.278 110.278-110.278c15.206-15.206 39.933-15.206 55.139 0s15.206 39.933 0 55.139l-110.278 110.278 110.278 110.278c15.27 15.206 15.27 39.933 0 55.139z" horiz-adv-x="1026" />
<glyph unicode="&#xe65f;" d="M63.892 185.179h146.633c11.564-11.501 277.995-235.762 277.995-235.762 16.037-9.712 29.646-12.523 41.274-11.437 23.64 2.236 40.252 22.043 45.3 42.936 0.256 2.045 0.256 933.848-0.064 935.893-4.984 20.957-21.659 40.763-45.236 42.999-11.628 1.086-25.237-1.725-41.274-11.437 0 0-266.43-232.44-277.995-243.94h-146.633c-35.268 0-63.892-28.624-63.892-63.892v-391.467c0-35.332 28.624-63.892 63.892-63.892zM673.488 337.243c-15.781-7.987-22.107-27.154-14.184-42.936 5.623-11.117 16.868-17.57 28.496-17.57 4.856 0 9.712 1.086 14.376 3.386 64.595 32.585 104.719 97.18 104.719 168.739s-40.124 136.154-104.719 168.739c-15.781 7.987-34.885 1.597-42.872-14.184-7.923-15.781-1.597-34.949 14.184-42.936 42.872-21.596 69.515-64.339 69.515-111.62s-26.643-90.024-69.515-111.62zM629.53 82.185c3.003-15.27 16.356-25.812 31.307-25.812 2.045 0 4.089 0.192 6.198 0.575 187.332 36.546 323.294 201.388 323.294 391.915s-135.963 355.368-323.358 391.915c-17.059 3.45-34.118-7.923-37.441-25.237-3.386-17.315 7.923-34.118 25.237-37.505 157.43-30.668 271.67-169.123 271.67-329.173s-114.239-298.504-271.67-329.173c-17.315-3.386-28.624-20.19-25.237-37.505z" horiz-adv-x="1022" />
<glyph unicode="&#xe660;" d="M657.578 959.808c-11.628 1.086-25.237-1.725-41.274-11.437 0 0-266.43-232.44-277.995-243.94h-146.633c-35.268 0-63.892-28.624-63.892-63.892v-391.467c0-35.268 28.624-63.892 63.892-63.892h146.633c11.564-11.501 277.995-235.762 277.995-235.762 16.037-9.712 29.646-12.523 41.274-11.437 23.64 2.236 40.252 22.043 45.3 42.936 0.319 2.045 0.319 933.912 0 935.893-5.047 20.957-21.723 40.763-45.3 42.999zM801.272 337.243c-15.781-7.987-22.107-27.154-14.184-42.936 5.623-11.117 16.868-17.57 28.496-17.57 4.856 0 9.712 1.086 14.376 3.386 64.595 32.585 104.719 97.18 104.719 168.739s-40.124 136.154-104.719 168.739c-15.781 7.987-34.949 1.597-42.872-14.184s-1.597-34.949 14.184-42.936c42.872-21.596 69.515-64.339 69.515-111.62s-26.643-90.024-69.515-111.62z" horiz-adv-x="1022" />
<glyph unicode="&#xe661;" d="M704 192v192c0 35.328 28.672 64 64 64h192v128c0 35.328-28.672 64-64 64h-73.472l-31.232 185.536c-1.408 8.448-6.208 16-13.184 20.864-7.040 4.928-15.808 6.656-24.192 5.312l-631.744-116.224c-8.384-1.536-15.872-6.4-20.672-13.504s-6.592-15.808-4.864-24.256l11.456-57.728h-44.096c-35.328 0-64-28.672-64-64v-576c0-35.328 28.672-64 64-64h832c35.328 0 64 28.672 64 64v128h-192c-35.328 0-64 28.672-64 64zM165.696 678.4l567.872 104.512 24.064-142.912h-584.32l-7.616 38.4zM992 384h-224v-192h224c17.664 0 32 14.336 32 32v128c0 17.664-14.336 32-32 32zM864 256c-17.664 0-32 14.336-32 32s14.336 32 32 32 32-14.336 32-32c0-17.664-14.336-32-32-32z" />
<glyph unicode="&#xe662;" d="M605.465 960c-228.802 0-414.265-185.463-414.265-414.265 0-98.468 34.48-188.714 91.839-259.84l-270.037-270.037c-17.272-17.272-17.272-45.314 0-62.586s45.314-17.272 62.586 0l270.037 270.037c71.126-57.36 161.372-91.839 259.84-91.839 228.802 0 414.265 185.463 414.265 414.265s-185.463 414.265-414.265 414.265zM796.664 513.868h-159.333v-159.333c0-17.59-14.276-31.867-31.867-31.867s-31.867 14.276-31.867 31.867v159.333h-159.333c-17.59 0-31.867 14.276-31.867 31.867s14.276 31.867 31.867 31.867h159.333v159.333c0 17.59 14.276 31.867 31.867 31.867s31.867-14.276 31.867-31.867v-159.333h159.333c17.59 0 31.867-14.276 31.867-31.867s-14.276-31.867-31.867-31.867z" />
<glyph unicode="&#xe663;" d="M605.465 960c-228.802 0-414.265-185.463-414.265-414.265 0-98.468 34.48-188.714 91.839-259.84l-270.037-270.037c-17.272-17.272-17.272-45.314 0-62.586s45.314-17.272 62.586 0l270.037 270.037c71.126-57.36 161.372-91.839 259.84-91.839 228.802 0 414.265 185.463 414.265 414.265s-185.463 414.265-414.265 414.265zM796.664 513.868h-382.399c-17.59 0-31.867 14.276-31.867 31.867s14.276 31.867 31.867 31.867h382.399c17.59 0 31.867-14.276 31.867-31.867s-14.276-31.867-31.867-31.867z" />
</font>
</defs>
</svg>
